Handmade in Japan S01E02 The Kimono (720p HD, soft Eng subs)

Handmade in Japan S01E02 The Kimono (720p HD, soft Eng subs) Torrent
Size: 494.9 MB
Language: English
Uploader: ElsonRoa

Download Handmade in Japan S01E02 The Kimono (720p HD, soft Eng subs) Torrent Video for PC orther device with torrent client(Tablet,Smartphone all devices supported).
Handmade in Japan S01E02 The Kimono (720p HD, soft Eng subs) Torrent For Torrent download Link. Please scroll to the end of description.


MOVIE TRAILER

Handmade in Japan S01E02 The Kimono (720p HD, soft Eng subs)

The second episode takes us to the remarkable island of Amami Oshima in the southern oceans of Japan, to follow the elaborate handmade production of a traditional Japanese kimono. Over five hundred people are involved in producing the island's famous mud-dyed silk which takes many months to produce. The film follows the painstaking process of the silk being bound, hand dyed, woven and finally turned into a kimono by a seamstress. Along the way we not only discover the history of the kimono tradition, but also the many difficulties facing the kimono industry in modern Japan.

(with soft subtitles)

First broadcast: 19 June 2017
Duration: 30 minutes



Media info:
General
Format : MPEG-4
Format profile : Base Media
Codec ID : isom (isom/iso2/avc1/mp41)
File size : 494 MiB
Duration : 28mn 55s
Overall bit rate mode : Variable
Overall bit rate : 2 388 Kbps
Writing application : Lavf57.25.100

Video
ID : 1
Format : AVC
Format/Info : Advanced Video Codec
Format profile : [email protected]
Format settings, CABAC : Yes
Format settings, ReFrames : 2 frames
Codec ID : avc1
Codec ID/Info : Advanced Video Coding
Duration : 28mn 55s
Bit rate mode : Variable
Bit rate : 2 289 Kbps
Maximum bit rate : 3 500 Kbps
Width : 1 280 pixels
Height : 720 pixels
Display aspect ratio : 16:9
Frame rate mode : Constant
Frame rate : 25.000 fps
Color space : YUV
Chroma subsampling : 4:2:0
Bit depth : 8 bits
Scan type : Progressive
Bits/(Pixel*Frame) : 0.099
Stream size : 473 MiB (96%)

Audio
ID : 2
Format : AAC
Format/Info : Advanced Audio Codec
Format profile : LC
Codec ID : 40
Duration : 28mn 55s
Bit rate mode : Variable
Bit rate : 93.5 Kbps
Maximum bit rate : 100 Kbps
Channel(s) : 2 channels
Channel positions : Front: L R
Sampling rate : 48.0 KHz
Frame rate : 46.875 fps (1024 spf)
Compression mode : Lossy
Stream size : 19.3 MiB (4%)

Handmade in Japan S01E02 The Kimono (720p HD, soft Eng subs) Torrent




Hey Friend! Like us!

Hey mate! You just got Movie for FREE!
Give us a LIKE! We need support!