Fear the Walking Dead 3x01 Gli Occhi Di Chi Guarda ITA ENG 1080p AMZN WEBMux x264-Morpheus mkv

Fear the Walking Dead 3x01 Gli Occhi Di Chi Guarda ITA ENG 1080p AMZN WEBMux x264-Morpheus mkv Torrent
Size: 2.7 GB
Language: English
Uploader: ppb1

Download Fear the Walking Dead 3x01 Gli Occhi Di Chi Guarda ITA ENG 1080p AMZN WEBMux x264-Morpheus mkv Torrent Video for PC orther device with torrent client(Tablet,Smartphone all devices supported).
Fear the Walking Dead 3x01 Gli Occhi Di Chi Guarda ITA ENG 1080p AMZN WEBMux x264-Morpheus mkv Torrent For Torrent download Link. Please scroll to the end of description.


MOVIE TRAILER


GIUSEPPEiCV & LITTLELINX
HANNO IL PIACERE DI PRESENTARE


Fear The Walking Dead
Stagione 3
WEBMUX 1080p
Dual Language ITA - ENG
Sub ITA - ENG

Trovi tutte le nostre release su
IL CORSARO VERDE
www.icv-crew.org




.: Dati Serie :.


Nazione : Stati Uniti d'America
Anno : 2017
Genere : drammatico, horror, azione
Stagioni 3
Episodi : 16
Durata : 45 min circa
Lingua : ITA - ENG
Ideatore : Robert Kirkman, Dave Erickson
Cast :
• Kim Dickens: Madison Clark
• Cliff Curtis: Travis Manawa
• Frank Dillane: Nick Clark
• Alycia Debnam-Carey: Alicia Clark
• Elizabeth Rodriguez: Liza Ortiz
• Mercedes Masohn: Ofelia Salazar
• Lorenzo James Henrie: Christopher Manawa
• Rubén Blades: Daniel Salazar
• Colman Domingo: Victor Strand

I protagonisti della 3a stagione di Fear The Walking Dead si trovano al confine tra Usa e Messico per provare a ripartire da zero e a ricostruire l'intera societa' partendo dalle proprie famiglie.


.: Screenshot :.




.: Caratteristiche Tecniche :.


Code:


Fear.the.Walking.Dead.3x01.Gli.Occhi.Di.Chi.Guarda.ITA.ENG.1080p.AMZN.WEBMux.x264-Morpheus.mkv
Format : Matroska
Format version : Version 4 / Version 2
File size : 2.72 GiB
Duration : 45mn 52s
Overall bit rate : 8 497 Kbps
Encoded date : UTC 2017-06-19 16:30:51
Writing application : mkvmerge v7.6.0 ('Garden of Dreams') 64bit built on Feb 8 2015 15:12:28
Writing library : libebml v1.3.1 + libmatroska v1.4.2
_STATISTICS_WRITING_APP : mkvmerge v7.6.0 ('Garden of Dreams') 64bit built on Feb 8 2015 15:12:28
_STATISTICS_WRITING_DATE_UTC : 2017-06-19 16:30:51
_STATISTICS_TAGS : BPS DURATION NUMBER_OF_FRAMES NUMBER_OF_BYTES
DURATION : 00:00:01.192000000
NUMBER_OF_FRAMES : 1
NUMBER_OF_BYTES : 37

Video
ID : 1
Format : AVC
Format/Info : Advanced Video Codec
Format profile : [email protected]
Format settings, CABAC : Yes
Format settings, ReFrames : 4 frames
Codec ID : V_MPEG4/ISO/AVC
Duration : 45mn 52s
Bit rate : 7 752 Kbps
Width : 1 920 pixels
Height : 1 080 pixels
Display aspect ratio : 16:9
Frame rate : 25.000 fps
Original frame rate : 23.976 fps
Color space : YUV
Chroma subsampling : 4:2:0
Bit depth : 8 bits
Scan type : Progressive
Bits/(Pixel*Frame) : 0.150
Stream size : 2.48 GiB (91%)
Writing library : x264 core 148 r2744 b97ae06
Encoding settings : cabac=1 / ref=4 / deblock=1:-3:-3 / analyse=0x3:0x133 / me=umh / subme=11 / psy=1 / psy_rd=1.00:0.00 / mixed_ref=1 / me_range=32 / chroma_me=1 / trellis=2 / 8x8dct=1 / cqm=0 / deadzone=21,11 / fast_pskip=0 / chroma_qp_offset=-2 / threads=12 / lookahead_threads=2 / sliced_threads=0 / nr=0 / decimate=0 / interlaced=0 / bluray_compat=0 / constrained_intra=0 / bframes=8 / b_pyramid=2 / b_adapt=2 / b_bias=0 / direct=3 / weightb=1 / open_gop=0 / weightp=2 / keyint=250 / keyint_min=23 / scenecut=40 / intra_refresh=0 / rc=crf / mbtree=0 / crf=19.0 / qcomp=0.60 / qpmin=0 / qpmax=69 / qpstep=4 / ip_ratio=1.40 / pb_ratio=1.30 / aq=3:0.80
Language : English
Default : Yes
Forced : No
_STATISTICS_WRITING_APP : mkvmerge v7.6.0 ('Garden of Dreams') 64bit built on Feb 8 2015 15:12:28
_STATISTICS_WRITING_DATE_UTC : 2017-06-19 16:30:51
_STATISTICS_TAGS : BPS DURATION NUMBER_OF_FRAMES NUMBER_OF_BYTES
DURATION : 00:45:52.120000000
NUMBER_OF_FRAMES : 68803
NUMBER_OF_BYTES : 2724154868

Audio #1
ID : 2
Format : AC-3
Format/Info : Audio Coding 3
Mode extension : CM (complete main)
Codec ID : A_AC3
Duration : 45mn 52s
Bit rate mode : Constant
Bit rate : 192 Kbps
Channel(s) : 2 channels
Channel positions : Front: L R
Sampling rate : 48.0 KHz
Bit depth : 16 bits
Compression mode : Lossy
Stream size : 63.0 MiB (2%)
Title : ITA
Language : Italian
Default : Yes
Forced : Yes

Audio #2
ID : 3
Format : AC-3
Format/Info : Audio Coding 3
Mode extension : CM (complete main)
Codec ID : A_AC3
Duration : 45mn 52s
Bit rate mode : Constant
Bit rate : 384 Kbps
Channel(s) : 6 channels
Channel positions : Front: L C R, Side: L R, LFE
Sampling rate : 48.0 KHz
Bit depth : 16 bits
Compression mode : Lossy
Stream size : 126 MiB (5%)
Title : ENG
Language : English
Default : No
Forced : No

Text #1
ID : 4
Format : UTF-8
Codec ID : S_TEXT/UTF8
Codec ID/Info : UTF-8 Plain Text
Title : ITA - Forced
Language : Italian
Default : Yes
Forced : Yes

Text #2
ID : 5
Format : UTF-8
Codec ID : S_TEXT/UTF8
Codec ID/Info : UTF-8 Plain Text
Language : Italian
Default : No
Forced : No

Text #3
ID : 6
Format : UTF-8
Codec ID : S_TEXT/UTF8
Codec ID/Info : UTF-8 Plain Text
Language : English
Default : No
Forced : No




.: Ringraziamenti :.





Fear the Walking Dead 3x01 Gli Occhi Di Chi Guarda ITA ENG 1080p AMZN WEBMux x264-Morpheus mkv Torrent